Skip to main content

Shakedown Live at Camp Kee-Wamee on 2013-09-13


Topics Wormfest 2013


*** This is a 24 bit recording, not intended for CD Burning ***

Shakedown
2013-09-13
Wormtown Music Festival
Camp KeeWanee
Greenfield, MA
Main Stage

DPA 4011 > V3 Digital + SBD > DR680 (24/48)
SDHC Card > Sound Forge Pro 10.0 (Mix, Normalize, Fades) > CD Wav (tracking) > TLH > Flac (level 8)
TS at front corner of FOH (ROC)/ORTF/approx. 8' high

Taped and Transferred by Brian V.


Set 1

01. Jack Straw
02. Greatest Story Ever Told
03. Mister Charlie
04. Brown Eyed Women
05. Cassidy
06. Feel Like A Stranger
07. Scarlet Begonias >
08. Fire On The Mountain
09. The Music Never Stopped
10. Turn on Your Love Light
11. Jack-a-Roe


Collection ShakedownBand
Band/Artist Shakedown
Venue Camp Kee-Wamee
Location Greenfield, MA

Source DPA 4011 > V3 Digital + SBD > DR680 (24/48)
Lineage SDHC Card > Sound Forge Pro 10.0 (Mix, Normalize, Fades) > CD Wav (tracking) > TLH > Flac (level 8
Taped by Brian V.
Transferred by Brian V.

Notes

the recording was stopped between Love Light and Jack-a-Roe and restarted. Jack-a-Roe starts up just as the music was starting.

Thanks to everyone that put Wormtown Music Festival together and for the tapers spot.
***Support Bands That Allow Taping/Trading***

shntool output
length expanded size cdr WAVE problems fmt ratio filename
5:59.560 103553324 B cxx -- ---xx flac 0.6374 shakedown2013-09-13s1t01.flac
6:26.813 111402284 B cxx -- ---xx flac 0.6668 shakedown2013-09-13s1t02.flac
5:25.720 93807404 B cxx -- ---xx flac 0.6778 shakedown2013-09-13s1t03.flac
7:44.333 133728044 B cxx -- ---xx flac 0.6494 shakedown2013-09-13s1t04.flac
8:09.813 141066284 B cxx -- ---xx flac 0.6474 shakedown2013-09-13s1t05.flac
9:11.587 158857004 B cxx -- ---xx flac 0.6804 shakedown2013-09-13s1t06.flac
8:47.173 151825964 B cxx -- ---xx flac 0.6850 shakedown2013-09-13s1t07.flac
11:39.840 201553964 B cxx -- ---xx flac 0.6679 shakedown2013-09-13s1t08.flac
7:08.840 123505964 B cxx -- ---xx flac 0.6581 shakedown2013-09-13s1t09.flac
9:19.184 161045036 B cxx -- ---xx flac 0.6421 shakedown2013-09-13s1t10.flac
5:41.952 98482220 B cxx -- ---xx flac 0.6828 shakedown2013-09-13s1t11.flac
85:34.816 1478827492 B 0.6631 (11 files)

Reviews

There are no reviews yet. Be the first one to write a review.
PEOPLE ALSO FOUND
Shakedown
by Shakedown
41
0
0
Source: DPA 4011 > V3 Digital + SBD > DR680 (24/48)
Shakedown
by Shakedown
41
0
0
Source: DPA 4011 > V3 Digital + SBD > R44 (24/48)
Shakedown
by Shakedown
16
0
0
Source: BSC1 (hypers) > FR-2LE [BA TMod] (24/48)
Shakedown
by Shakedown
66
0
0
Source: Oktava mk 012 > R4 (24/48)
Shakedown
by Shakedown
57
0
0
Source: BSC1 (hypers) > FR-2LE [BA TMod] (24/48)
Shakedown
by Shakedown
43
0
0
Source: DPA 4011 > V3 Digital + SBD > DR680 (24/48)
Shakedown
by Shakedown
65
0
0
Source: DPA 4011 > V3 Digital + SBD > R44 (24/48)
Shakedown
by Shakedown
42
0
0
Source: DPA 4011 > V3 Digital + SBD > R44 (24/48)
Seed
by Seed
88
0
0
Source: DPA 4011 > V3 Digital > R44 (24/96)
Source: BSC1 (hypers) > Silver Cables > FR-2LE [BA TMod] (24/48)